Battleship - Batalla Naval 2012 R6 en Latino 1 Link JB

TV, Peliculas y series | Más de 5 años
0
0
0
Battleship - Batalla Naval 2012 R6 en Latino 1 Link JB





[img]http://xpload.tk/pages/generador/images/youtube.png[/img]



[img]http://xpload.tk/pages/generador/images/informacion.png[/img]



“Battleship” es la libre adaptación al cine del popular juego de mesa de Hasbro conocido como “Hundir la flota” o ”Batalla naval”. La curiosa variante que plantea esta versión es que la batalla será entre la U.S. Navy y… ¡una flota alienígena! La historia nos plantea una épica aventura de acción que transcurre en el mar, el cielo y la tierra, y en la que nuestro planeta lucha por sobrevivir contra una fuerza muy superior. La película está protagonizada por Taylor Kitsch en el papel del teniente Hopper, un oficial de la Marina destinado al John Paul Jones; Brooklyn Decker es Sam Shane, una fisioterapeuta de la Marina y novia de Hopper; Alexander Skarsgård es Stone, el hermano mayor de Hopper y comandante del Samson; Rihanna es la suboficial Raikes, especialista en armas del John Paul Jones; y Liam Neeson es el almirante Shane, el oficial superior de Hopper y Stone (y padre de Sam). (FILMAFFINITY)



Format : AVI
Format/Info : Audio Video Interleave
File size : 971 MG
Duration : 2h 0mn
Overall bit rate : 1 537 Kbps

Video
ID : 0
Format : MPEG-4 Visual
Format profile : Advanced Simple@L5
Format settings, BVOP : 1
Format settings, QPel : No
Format settings, GMC : No warppoints
Format settings, Matrix : Default (H.263)
Codec ID : XVID
Codec ID/Hint : XviD
Duration : 2h 0mn
Bit rate : 1 336 Kbps
Width : 640 pixels
Height : 280 pixels
Display aspect ratio : 2.25:1
Frame rate : 23.976 fps
Color space : YUV
Chroma subsampling : 4:2:0
Bit depth : 8 bits
Scan type : Progressive
Compression mode : Lossy
Bits/(Pixel*Frame) : 0.311
Stream size : 1.12 GiB (87%)
Writing library : XviD 1.2.1 (UTC 2008-12-04)

Audio
ID : 1
Format : AC-3
Format/Info : Audio Coding 3
Mode extension : CM (complete main)
Codec ID : 2000
Duration : 2h 0mn
Bit rate mode : Constant
Bit rate : 192 Kbps
Channel(s) : 2 channels
Channel positions : Front: L R
Sampling rate : 48.0 KHz
Bit depth : 16 bits
Compression mode : Lossy
Stream size : 165 MiB (12%)
Alignment : Aligned on interleaves
Interleave, duration : 42 ms (1.00 video frame)
Interleave, preload duration : 512 ms



[img]http://xpload.tk/pages/generador/images/imagenes.png[/img]














[img]http://xpload.tk/pages/generador/images/links.png[/img]

Para poder ver los links necesitas estar Registrado. O.. ya tienes cuenta? Logueate!
[img]http://xpload.tk/pages/generador/images/password.png[/img]
www.xpload.tk



Puntos agregados!

30 Puntos

Votos: 3 - FD! score: 3/10

696

Visitas

0

Favoritos

4

Medallas

0

Seguidores

También te puede interesar...

TV, Peliculas y series Ben 10: Invasión Alienígena...
TV, Peliculas y series San Martín El Cruce de los An...
TV, Peliculas y series No [Excelente Calidad][Rmvb][E...
TV, Peliculas y series 12 rounds/trampas (2009) [Dvd...
TV, Peliculas y series Safe 2011 [DVDrip Accion Caste...
TV, Peliculas y series Ted [Excelente Calidad][Sub Es...